burgersmith-london.co.uk

Torrents
Documentales 842
Pelculas 11256
Pelculas HD 2068
Series 1961
   Episodios 22513
Series HD 244
   Episodios 2743
Juegos 2689
   PC 1736
Variados 1521
   Deportes 36
   Programas 592
   Videoclips 102
   Otros 722
Msica MP3 3525
Total Torrents 57258

Informacin
Esta web no contiene ningn tipo de fichero almacenado.

Todos los archivos se comparten mediante el BitTorrent, un programa P2P de intercambio entre usuarios.


Descarga la ltima versin de uTorrent y baja a la mxima velocidad:
Beyonc - I AM... World Tour
Total Descargas:  5.291 En Enero:  5.291

Fecha:  2016-09-22



Torrent:      Descargar         Tamao:  955,69 MB
Descripcin:

General
Complete name : Beyonce I Am World Tour 2010 BRRip 720p x264 AAC - PRiSTiNE.mp4
Format : MPEG-4
Format profile : Base Media / Version 2
Codec ID : mp42
File size : 945 MiB
Duration : 1h 39mn
Overall bit rate mode : Variable
Overall bit rate : 1 335 Kbps

Video
Format : AVC
Bit rate : 1 250 Kbps
Width : 1 280 pixels
Height : 720 pixels
Display aspect ratio : 16:9
Frame rate mode : Variable
Frame rate : 23.976 fps
Scan type : Progressive
Bits/(Pixel*Frame) : 0.057
Stream size : 885 MiB (94%)
Writing library : x264 core 129

Audio
Format : AAC
Bit rate : 79.9 Kbps
Channel(s) : 2 channels
Channel positions : Front: L R
Sampling rate : 48.0 KHz
Stream size : 56.6 MiB (6%)



Volver al ndice de Variados





Joop Jump 100 ml Eau de Toilette EDT | [FUNA×九重ヒビキ×すきま] ポーション頼みで生き延びます! 第01-03巻 | Bad Times at the El Royale 2018 720p HDCAM-1XBET